Wishlist it55Wishlisted55
Create alert00Edit alert00
Own it00Owned00

Buy Passion At All Costs - Documentary PC

Warning

This DLC requires base game Starship Commander: Arcade.

Compare prices with GG.deals to find the cheapest cd key for Passion At All Costs - Documentary PC. Head over to one of the trusted game stores from our price comparison and buy cd key at the best price. Use the indicated client to activate key and download and play your game.

Official Stores:FreeHistorical low
Keyshops:
Subscriptions:
Official Stores Low:FreeCurrently Active
Keyshops Low:

Compare prices in official stores

Compare prices in Keyshops

Risk info
No more deals available right now. Create alert and get notified for new deals.

DLC info

Release date

10 Sep 2020

Developer

Human Interact

Features

About Passion At All Costs - Documentary

Game description

Co-Founders Alexander Mejia, and Sophie Wright sit down and talk about their journey from 2015 to 2020 making Starship Commander Arcade. Watch their journey from working on Starship Commander as a hobby project, to making their big break with Microsoft catapulting their company, Human Interact into the lime light. As publishers of VR games focused on motion controls, Starship Commander failed to raise enough money with their innovative voice dialogue systems, and were forced to make a hard choice: Release Starship Commander as an arcade only experience, or fold the company.

This film has a runtime of 52 minutes, and is DRM free.

Technical Specs:
Video
Format : AVC
Format profile : High@L5.1
Duration : 52 min 21 s
Bit rate : 9 517 kb/s
Width : 3 840 pixels
Height : 2 160 pixels
Display aspect ratio : 16:9
Frame rate mode : Constant
Frame rate : 23.976 (24000/1001) FPS
Color space : YUV
Chroma subsampling : 4:2:0
Bit depth : 8 bits
Scan type : Progressive
Stream size : 3.48 GiB (97%)
Writing library : x264 core 157 r2981 b5bc5d6
Encoding settings : cabac=1 / ref=5 / deblock=1:-1:-1 / analyse=0x3:0x113 / me=hex / subme=8 / psy=1 / psy_rd=1.00:0.15 / mixed_ref=1 / me_range=16 / chroma_me=1 / trellis=2 / 8x8dct=1 / cqm=0 / deadzone=21,11 / fast_pskip=1 / chroma_qp_offset=-3 / threads=48 / lookahead_threads=8 / sliced_threads=0 / nr=0 / decimate=1 / interlaced=0 / bluray_compat=0 / constrained_intra=0 / bframes=3 / b_pyramid=2 / b_adapt=1 / b_bias=0 / direct=3 / weightb=1 / open_gop=0 / weightp=2 / keyint=250 / keyint_min=23 / scenecut=40 / intra_refresh=0 / rc_lookahead=50 / rc=crf / mbtree=1 / crf=24.0 / qcomp=0.60 / qpmin=0 / qpmax=69 / qpstep=4 / ip_ratio=1.40 / aq=1:1.00

Audio
Format : AAC
Format profile : LC
Duration : 52 min 21 s
Bit rate mode : Variable
Bit rate : 310 kb/s
Maximum bit rate : 320 kb/s
Channel(s) : 2 channels
Channel positions : Front: L R
Sampling rate : 48.0 kHz
Frame rate : 46.875 FPS (1024 SPF)
Compression mode : Lossy
Stream size : 116 MiB (3%)

System requirements

Minimum:
  • OS: Windows 7 or above
  • Processor: Pentium Processor
  • Memory: 2 GB RAM
  • Graphics: Any
  • Storage: 4 GB available space
  • Sound Card: Any
  • Additional Notes: This is a video you watch

Price History of Passion At All Costs - Documentary

Sorry, we have not recorded any price for this game in Official Stores.

Enable Keyshops to see recorded prices.

Historical low prices

Historical low:
Free
Steam
currently active
3 months low:
Free
Steam
currently active
12 months low:
Free
Steam
currently active
all time low:
Free
Steam
currently active
Current Lowest Price:Free Steam
Still waiting for the better price?
You've already set your alert.